#TITLE:Happy Angel v.2;
#SUBTITLE:;
#ARTIST:jun feat. TAHIRIH;
#TITLETRANSLIT:;
#SUBTITLETRANSLIT:;
#ARTISTTRANSLIT:;
#CREDIT:;
#BANNER:happyangel-bn.png;
#BACKGROUND:happyangel-bg.png;
#LYRICSPATH:;
#CDTITLE:!cdtitle.png;
#MUSIC:Happy Angel.mp3;
#OFFSET:-0.220;
#SAMPLESTART:65.915;
#SAMPLELENGTH:17.127;
#SELECTABLE:YES;
#BPMS:0.000=180.000,197.000=90.000,215.000=180.000;
#STOPS:;
#BGCHANGES:;
// cache tags:
#FIRSTBEAT:0.000;
#LASTBEAT:309.000;
#SONGFILENAME:Songs/Music V.I.P ^_^/Happy  Angel v2- Gamepro/Happy Angel.sm;
#HASMUSIC:1;
#HASBANNER:1;
#MUSICLENGTH:111.624;
// end cache tags

//---------------dance-single - ----------------
#NOTES:
     dance-single:
     :
     Challenge:
     12:
     1.000,1.000,1.000,0.081,1.000,842.000,167.000,9.000,0.000,2.000:
0110
0000
1001
0100
0100
1100
0100
1010
,
1001
0101
0011
0001
0001
0110
1100
0000
,
1010
0000
0101
0001
0001
1100
0100
1100
,
1010
0110
1001
0000
0011
1100
0000
0100
,
0110
0000
1001
0000
0000
0101
0000
0001
,
0010
0100
1100
0000
0110
0000
0011
0000
,
1001
1010
0000
0011
,
0000
0000
1001
0000
0101
0000
0110
0100
,
1001
0100
0010
0100
1001
0100
0010
0100
1000
0010
1000
0100
0010
0001
1000
0100
,
0010
0001
0100
0010
1000
0010
0100
0010
1000
0100
0010
0001
1000
0001
0010
0001
,
0100
0010
1000
0100
0010
0100
1000
0001
0100
0010
1000
0100
0010
0001
0010
0100
,
1000
0001
0100
0010
1000
0100
0010
0001
1000
0010
0100
0010
1000
0001
1000
0100
,
0010
0001
0100
0010
1000
0010
0100
0001
0010
0100
1000
0010
0100
0001
1000
0100
,
1000
0010
0100
0001
0010
0100
1000
0001
0100
0010
0100
0001
1000
0100
0010
0001
,
0100
0001
0010
0100
1000
0001
0100
0010
1000
0001
0100
0001
1000
0100
0010
0001
,
0100
0010
1000
0100
0010
0001
0010
0100
1000
0001
0100
0010
0100
0001
1000
0100
,
0010
0100
1000
0010
0101
0000
0001
0000
1100
0000
0100
0000
1010
0000
0010
0000
,
0101
1100
1000
0110
1000
1001
1000
0001
,
0110
0000
1001
0100
0110
0100
1010
0100
,
0011
1100
0010
0101
1000
1100
0010
0000
,
0010
0000
1010
1000
1100
0100
0110
0010
,
0011
0101
0001
1100
1000
0101
0000
0000
,
0110
1010
1001
1000
1100
0101
0001
0110
,
0010
0000
1010
0000
1000
0000
1100
0000
0000
0000
1001
0000
0000
0000
0001
1000
,
0010
0100
0010
1000
0101
0000
1000
0000
1100
0000
0001
0000
0011
0000
0001
0000
,
0101
1010
0010
0101
1000
1100
0010
0100
,
0101
1000
0100
1000
0101
0000
1000
0000
1100
0000
0001
0000
0101
0000
1100
0000
,
1010
0101
1000
0110
1100
1000
1000
0010
,
1001
0100
0010
0100
1001
0000
0100
0000
0101
0000
0010
0000
1100
0000
0001
0000
,
0101
0101
0100
1010
1000
1001
0001
0100
,
0011
1000
0100
1000
0011
0000
0100
0000
0101
0000
0011
0000
0010
0000
0110
0000
,
0100
1100
0010
0101
1010
0102
0000
1000
,
0010
1000
0100
1000
0010
0000
0000
0000
0000
0000
1013
0000
0000
0000
0101
0000
,
1100
0000
0110
0000
1001
0010
0100
1000
0010
0100
0001
1000
0100
1000
0010
0100
,
0001
1000
0100
0010
0001
1000
0010
0100
0001
1000
0010
1000
0001
0100
0010
0100
,
0001
1000
0100
0010
0001
0100
0010
1000
0100
0010
0001
1000
0010
0100
0001
1000
,
0100
1000
0010
0100
0001
1000
0100
0010
0100
1000
0001
0010
0100
1000
0010
0100
,
0001
1000
0010
1000
0001
0010
0100
1000
0100
0010
0001
1000
0010
0100
0001
1000
,
0001
0100
0010
1000
0100
1000
0010
0100
0010
1000
0100
0010
0001
1000
0001
0100
,
0010
1000
0100
1000
0001
0100
0010
1000
0100
0010
0001
1000
0010
0100
0001
1000
,
0001
0100
0010
1000
0100
0010
0100
1000
0001
0100
0010
0100
0001
1000
0001
0100
,
0010
1000
0010
0100
0101
1000
0100
0010
0001
1000
0010
0100
0010
1000
0001
0100
,
0010
0100
0001
1000
0100
0010
0001
0100
0010
1000
0100
0010
0100
1000
0001
0100
,
0010
1000
0100
0010
0001
0010
0100
1000
0010
0100
0001
1000
0100
1000
0001
0010
,
0100
1000
0001
0100
0010
0100
0001
1000
0100
0010
0001
0100
0010
1000
0010
0100
,
0001
1000
0100
1000
0010
0100
0001
1000
0100
0010
0001
0100
0010
1000
0010
0100
,
0001
1000
0100
0010
0100
1000
0001
0010
0100
1000
0010
1000
0100
0010
0001
0100
,
0010
1000
0001
0100
0001
1000
0010
0100
0001
1000
0100
1000
0001
0100
0001
0010
,
0100
1000
0010
0100
0001
1000
0001
0100
0010
1000
0100
0010
0001
1000
0010
0100
,
0001
1000
0100
0010
1001
0000
1000
0100
1000
0000
0001
0100
0001
0000
0001
0010
,
0000
0010
0100
1000
0101
0000
0010
1000
0001
0000
1000
0100
0010
0000
0001
0100
,
0000
0010
1000
0001
0101
0000
0010
1000
0100
0000
1000
0000
0001
0000
0100
0000
,
0001
0000
1000
0000
0110
0001
1000
0100
0000
0100
0010
0001
0000
1000
0010
2000
,
3000
0002
0000
0000
2013
0000
0000
0000
0000
3000
0001
0000
2100
0000
0000
0000
,
0000
3001
1010
0011
,
1000
0000
0100
0000
1010
0010
0101
0000
,
1100
0101
1100
0110
,
0100
1001
1010
0101
,
1100
0101
1010
2200
,
0000
0000
3300
0010
0100
0010
1001
0000
,
0101
0000
0000
0000
1100
0000
0000
0000
0101
0000
0000
0000
1100
0010
0001
1000
,
0010
0100
0001
1000
0100
0010
0100
1000
0001
0010
0100
1000
0010
1000
0100
1000
,
0001
0100
0010
1000
0100
0010
0001
0100
0101
1000
0010
1000
0011
0100
0010
1000
,
0100
1000
0001
0100
0010
1000
0100
0010
0001
1000
0010
0100
0001
1000
0010
1000
,
0001
0100
0010
0100
0001
1000
0100
0010
0011
1000
0100
0010
1001
0100
0010
0100
,
1000
0010
0100
0001
1000
0100
0010
0100
1000
0001
0010
0100
1000
0010
1000
0100
,
1000
0001
0100
0010
1000
0100
0010
0001
1100
0100
0010
0100
1001
0100
0010
0100
,
1000
0001
0100
0010
1001
0010
0100
0001
1000
0100
0010
0001
1100
0010
0001
1000
,
0010
0100
0001
1000
0101
0010
1000
0100
0011
1000
0100
0010
1001
0000
0100
0000
,
1001
0000
0100
0000
1001
0000
0100
1000
0001
0000
1000
0000
0101
0000
0010
0000
,
0101
0000
0010
0000
0101
0000
0010
0100
0001
0000
1000
0000
1100
0000
0010
0000
,
1100
0000
0010
0000
1100
0000
0010
0100
0001
0000
1000
0000
1100
0000
0100
0000
,
0110
0100
1010
0101
1100
0110
1001
0100
,
1001
0000
0100
0000
1001
0000
1000
0001
0010
0000
0100
0000
0011
0000
0100
0000
,
0011
0000
0100
0000
0011
0000
1000
0010
0100
0000
0001
0000
1100
0000
0010
0000
,
1100
0000
0010
0000
1100
0000
0001
0100
0010
0000
1000
0000
1001
0000
0001
0000
,
0101
0000
0100
0000
0110
0000
0010
0000
1001
0100
0010
0100
2002
0000
0000
0000
,
0000
3003
0000
0000
;
